请选择 进入手机版 | 继续访问电脑版

新模拟器共享论坛

 找回密码
 注册

QQ登录

只需一步,快速开始

1 2

最近看过此主题的会员

查看: 166|回复: 15

[动 漫] DB劇場版系列《龍珠Z 龍拳爆發 捨我其誰》國粵日三語合成版

  [复制链接]

签到天数: 10 天

[LV.3]偶尔看看II

评论头像

发表于 2019-4-14 00:04:32 | 显示全部楼层 |阅读模式
本帖最后由 罗云 于 2019-4-22 20:30 编辑

【影片名稱】:龍珠Z劇場版 龍拳爆發 捨我其誰
【集數】:1集
【視頻格式】:BDRIP-MKV
【分辨率】:1920x1080
【影片大小】:2.87G
【語言】:國粵日
【載點】:百度雲
【發佈性質】高清片源三語音軌合成




此為官方發行的第16部劇場版,疑似解釋了未來杜拉格斯(特南克斯)所擁有寶劍的來歷
時間段在TV版魔人布歐(烏普)事件發生期間,因為格古洛(卡卡羅特)會變超賽3,而比達(貝吉塔)沒死,悟飯擁有賽亞超人和龜派服兩種形象


由於最近漢化組沒有項目,製作該劇場版的合成視頻屬於不務正業系列
採用了目前該劇最清晰最好的片源,自帶日語音軌,粵語音軌來自TVB,國語音軌來自網絡搜集
如選擇國語音頻觀看請無視字幕,畢竟字幕對應的是粵語音軌


論壇權限“略有小成”可直接見鏈接,回復帖子下載,沒有的請多加努力
請勿傳播,請於下載24小時內刪除此文件
高權限防外人爆破,如失效請私信通知




Video
ID                             : 1
Format                         : AVC
Format/Info                    : Advanced Video Codec
Format profile                 : High@L4
Format settings                : CABAC / 3 Ref Frames
Format settings, CABAC         : Yes
Format settings, ReFrames      : 3 frames
Codec ID                       : V_MPEG4/ISO/AVC
Duration                       : 51 min 47 s
Bit rate                       : 7 000 kb/s
Width                          : 1 920 pixels
Height                         : 1 080 pixels
Display aspect ratio           : 16:9
Frame rate mode                : Constant
Frame rate                     : 23.976 FPS
Color space                    : YUV
Chroma subsampling             : 4:2:0
Bit depth                      : 8 bits
Scan type                      : Progressive
Bits/(Pixel*Frame)             : 0.141
Stream size                    : 2.55 GiB (89%)
Writing library                : x264 core 80 r1376M 3feaec2
Encoding settings              : cabac=1 / ref=3 / deblock=1:0:0 / analyse=0x3:0x113 / me=hex / subme=7 / psy=1 / psy_rd=1.0:0.0 / mixed_ref=1 / me_range=16 / chroma_me=1 / trellis=1 / 8x8dct=1 / cqm=0 / deadzone=21,11 / fast_pskip=1 / chroma_qp_offset=-2 / threads=3 / sliced_threads=0 / nr=0 / decimate=1 / mbaff=0 / constrained_intra=0 / bframes=3 / b_pyramid=0 / b_adapt=1 / b_bias=0 / direct=1 / wpredb=1 / wpredp=2 / keyint=250 / keyint_min=25 / scenecut=40 / rc_lookahead=40 / rc=abr / mbtree=1 / bitrate=7000 / ratetol=1.0 / qcomp=0.60 / qpmin=10 / qpmax=51 / qpstep=4 / ip_ratio=1.40 / aq=1:1.00
Default                        : Yes
Forced                         : No

Audio #1
ID                             : 2
Format                         : AAC LC SBR
Format/Info                    : Advanced Audio Codec Low Complexity with Spectral Band Replication
Commercial name                : HE-AAC
Format settings                : Explicit
Codec ID                       : A_AAC-2
Duration                       : 51 min 47 s
Bit rate                       : 48.0 kb/s
Channel(s)                     : 2 channels
Channel layout                 : L R
Sampling rate                  : 44.1 kHz
Frame rate                     : 21.533 FPS (2048 SPF)
Compression mode               : Lossy
Stream size                    : 18.3 MiB (1%)
Title                          : 国语
Language                       : Chinese
Default                        : Yes
Forced                         : No

Audio #2
ID                             : 3
Format                         : AC-3
Format/Info                    : Audio Coding 3
Commercial name                : Dolby Digital
Codec ID                       : A_AC3
Duration                       : 51 min 47 s
Bit rate mode                  : Constant
Bit rate                       : 192 kb/s
Channel(s)                     : 2 channels
Channel layout                 : L R
Sampling rate                  : 48.0 kHz
Frame rate                     : 31.250 FPS (1536 SPF)
Bit depth                      : 16 bits
Compression mode               : Lossy
Stream size                    : 71.1 MiB (2%)
Title                          : 粵語(TVB-J2)
Language                       : Chinese
Service kind                   : Complete Main
Default                        : No
Forced                         : No

Audio #3
ID                             : 4
Format                         : AC-3
Format/Info                    : Audio Coding 3
Commercial name                : Dolby Digital
Codec ID                       : A_AC3
Duration                       : 51 min 47 s
Bit rate mode                  : Constant
Bit rate                       : 640 kb/s
Channel(s)                     : 1 channel
Channel layout                 : C
Sampling rate                  : 48.0 kHz
Frame rate                     : 31.250 FPS (1536 SPF)
Bit depth                      : 16 bits
Compression mode               : Lossy
Stream size                    : 237 MiB (8%)
Title                          : 日語
Language                       : Japanese
Service kind                   : Complete Main
Default                        : No
Forced                         : No

Text
ID                             : 5
Format                         : PGS
Muxing mode                    : zlib
Codec ID                       : S_HDMV/PGS
Codec ID/Info                  : Picture based subtitle format used on BDs/HD-DVDs
Duration                       : 51 min 2 s
Bit rate                       : 30.1 kb/s
Count of elements              : 1112
Stream size                    : 11.0 MiB (0%)
Title                          : 繁體
Language                       : Chinese
Default                        : Yes
Forced                         : No

游客,本帖隐藏的内容需要积分高于 800 才可浏览,您当前积分为 0

游客,如果您要查看本帖隐藏内容请回复




本帖子中包含更多资源

您需要 登录 才可以下载或查看,没有帐号?注册

x

评分

3

查看全部评分

签到天数: 1042 天

[LV.10]以坛为家III

评论头像(1)

发表于 2019-4-14 02:25:30 | 显示全部楼层
辛苦罗云了!这个值得收藏!
[发帖际遇]: 惊天 姜维第二交手机费,竟交错 4 枚 金钱. 无语. 幸运榜 / 衰神榜
回复 支持 反对

使用道具 举报

签到天数: 703 天

[LV.9]以坛为家II

评论头像

发表于 2019-4-14 07:33:41 | 显示全部楼层
好东西 感谢楼主
回复 支持 反对

使用道具 举报

签到天数: 1237 天

[LV.10]以坛为家III

评论头像

发表于 2019-4-14 07:40:06 | 显示全部楼层
这是哪一年的剧场版?第一张图看着好眼熟

下载看看先
[发帖际遇]: mzchjian 姜维第二交手机费,竟交错 4 枚 金钱. 无语. 幸运榜 / 衰神榜
回复 支持 反对

使用道具 举报

签到天数: 1162 天

[LV.10]以坛为家III

评论头像

发表于 2019-4-14 08:36:37 | 显示全部楼层
这个是最新版吗?感觉似曾相识哈哈
[发帖际遇]: 红白机 捡了钱没交公 金钱 降了 1 枚 . 幸运榜 / 衰神榜
回复 支持 反对

使用道具 举报

签到天数: 259 天

[LV.8]以坛为家I

评论头像

发表于 2019-4-14 09:46:23 | 显示全部楼层
感觉是其他论坛直接搬运的,谢谢楼主
回复 支持 反对

使用道具 举报

签到天数: 10 天

[LV.3]偶尔看看II

评论头像

发表于 2019-4-14 11:12:48 | 显示全部楼层
本帖最后由 罗云 于 2019-4-14 11:31 编辑

ed2000片源清晰度沒這個好,只有407MB容量的片源,一些畫面馬賽克嚴重,而且只有國/日語音頻

加上片長和制式不同,需要用到音頻編輯軟件對國語音軌進行時間長度方面的編輯
如果直接就搬運,那發佈完全沒有意義
回复 支持 反对

使用道具 举报

签到天数: 10 天

[LV.3]偶尔看看II

评论头像

发表于 2019-4-14 11:17:43 | 显示全部楼层

根據資料,這是1995年的劇場版
回复 支持 反对

使用道具 举报

您需要登录后才可以回帖 登录 | 注册

本版积分规则

新模拟器共享论坛X

翻译WIKI大量成长力和金钱奖励!

访问http://wiki.nesbbs.com,翻译词条到论坛指定区,每一个完成翻译并有采纳的,有成长力等奖励哟...

点击查看详情 

QQ|申请友链|小黑屋|手机版|Archiver|新模拟器共享网 ( 辽ICP备09001055号|繁體中文   

GMT+8, 2019-4-22 22:19 , Processed in 0.078001 second(s), 48 queries , XCache On.

Powered by Discuz! X3.4 Licensed

© 2001-2017 Comsenz Inc.

快速回复 返回顶部 返回列表